<?xml version="1.0" standalone="no"?>
<!DOCTYPE svg PUBLIC "-//W3C//DTD SVG 1.1//EN" "http://www.w3.org/Graphics/SVG/1.1/DTD/svg11.dtd">
<svg xmlns="http://www.w3.org/2000/svg">
<metadata>Copyright (C) 2023 by original authors @ fontello.com</metadata>
<defs>
<font id="fontello" horiz-adv-x="1000" >
<font-face font-family="fontello" font-weight="400" font-stretch="normal" units-per-em="1000" ascent="850" descent="-150" />
<missing-glyph horiz-adv-x="1000" />
<glyph glyph-name="sidebar" unicode="&#xe800;" d="M91 850c-50 0-91-41-91-91v-818c0-50 41-91 91-91h818c50 0 91 41 91 91v818c0 50-41 91-91 91z m0-45h818c25 0 46-21 46-46v-91h-909v91c0 25 20 46 45 46z m23-46a23 23 0 0 1-23-23 23 23 0 0 1 23-22 23 23 0 0 1 22 22 23 23 0 0 1-22 23z m91 0a23 23 0 0 1-23-23 23 23 0 0 1 23-22 23 23 0 0 1 22 22 23 23 0 0 1-22 23z m91 0a23 23 0 0 1-23-23 23 23 0 0 1 23-22 23 23 0 0 1 22 22 23 23 0 0 1-22 23z m-250-136h272v-728h0-227c-25 0-45 21-45 46z m318 0h591v-682c0-25-21-46-46-46h-545z m-250-137c-13 0-23-10-23-22 0-13 10-23 23-23h136c13 0 23 10 23 23 0 12-10 22-23 22z m0-136c-13 0-23-10-23-23 0-12 10-22 23-22h136c13 0 23 10 23 22 0 13-10 23-23 23z m0-136c-13 0-23-10-23-23 0-13 10-23 23-23h136c13 0 23 10 23 23 0 13-10 23-23 23z m0-137c-13 0-23-10-23-22 0-13 10-23 23-23h91c12 0 22 10 22 23 0 12-10 22-22 22z" horiz-adv-x="1000" />

<glyph glyph-name="login" unicode="&#xe801;" d="M459 850c-122 0-222-100-222-222v-46a38 38 0 1 1 75 0v46c0 82 65 147 147 147h244c81 0 146-65 146-146v-557c0-82-65-147-146-147h-245c-81 0-146 65-146 146v47a38 38 0 1 1-75 0v-47c0-121 100-221 221-221h245c122 0 221 100 221 222v557c0 122-99 221-221 221z m34-316a38 38 0 0 1-26-65l82-81h-511a38 38 0 1 1 0-75h511l-82-82a38 38 0 1 1 53-53l144 142a38 38 0 0 1 0 60l-144 142a38 38 0 0 1-27 12z" horiz-adv-x="924" />

<glyph glyph-name="logout" unicode="&#xe802;" d="M222 850c-122 0-222-100-222-222v-556c0-122 100-222 222-222h244c122 0 221 99 221 221v47a38 38 0 1 1-75 0v-47c0-81-65-146-146-146h-244c-82 0-147 65-147 147v556c0 82 65 147 147 147h243c82 0 147-65 147-147v-46a38 38 0 1 1 75 0v46c0 122-100 222-222 222z m621-316a38 38 0 0 1-26-65l82-81h-512a38 38 0 1 1 0-75h512l-82-82a38 38 0 1 1 52-53l144 142a38 38 0 0 1-1 60l-143 142a38 38 0 0 1-26 12z" horiz-adv-x="1027" />

<glyph glyph-name="hide" unicode="&#xe803;" d="M1034 850a43 43 0 0 1-30-13l-124-124c-92 63-194 103-302 103-120 0-235-44-334-122-99-78-181-189-240-327a43 43 0 0 1 0-34c51-120 123-216 205-291l-117-118a43 43 0 1 1 61-61l145 145a43 43 0 0 1 4 4l175 175 0 0a43 43 0 0 1 6 6 43 43 0 0 1 0 1l252 252 1 0a43 43 0 0 1 5 6 43 43 0 0 1 1 0l174 174 0 0a43 43 0 0 1 5 5l144 145a43 43 0 0 1-31 74z m-456-121c84 0 164-31 239-79l-115-115c-36 24-77 41-124 41-124 0-226-101-226-226 0-47 18-87 42-123l-124-124c-69 62-130 144-177 247 54 117 124 212 205 276a43 43 0 0 1 0 0c85 68 181 103 280 103z m428-153a43 43 0 0 1-31-70c33-45 63-99 89-156-110-240-291-379-486-379-45 0-89 7-132 22a43 43 0 0 1-28-83c52-17 106-26 160-26 241 0 457 174 575 449a43 43 0 0 1 0 34c-30 71-67 135-109 191a43 43 0 0 1-33 18 43 43 0 0 1-5 0z m-428-86c22 0 38-14 56-23l-172-172c-9 18-23 33-23 55 0 78 61 140 139 140z m179-129a43 43 0 0 1-42-36c-10-57-55-102-111-112a43 43 0 1 1 15-85c92 17 165 89 182 182a43 43 0 0 1-44 51z" horiz-adv-x="1157" />

<glyph glyph-name="star-stroke" unicode="&#xe804;" d="M521 850l-119-382-402-5 329-231-119-382 322 240 328-231-129 379 322 239-402-5-130 378z m2-169l78-227 12-36 38 1 240 3-192-142-31-23 13-36 77-226-196 138-31 22-31-23-192-143 71 227 11 37-31 22-196 137 240 3 38 1 11 36 71 229z" horiz-adv-x="1053" />

<glyph glyph-name="arrow-left" unicode="&#xe805;" d="M551 850l-551-498 106-93h291l-90 83 117 101 276 273z m-340-686l350-314 134 133-201 181z" horiz-adv-x="700" />

<glyph glyph-name="arrow-right" unicode="&#xe806;" d="M149 850l-149-134 276-273 117-101-90-83h291l106 93z m340-686l-283 0-201-181 134-133z" horiz-adv-x="700" />

<glyph glyph-name="arrow-bottom" unicode="&#xe807;" d="M1252 850l-396-395-145-167-121 129v-415l135-152 719 788z m-1060-7l-192-192 454-500-1 405z" horiz-adv-x="1444" />

<glyph glyph-name="arrow-alt-up" unicode="&#xe808;" d="M539 850l-539-518 145-153 296 285c0 0 2-370 2-604l200-10-3 891z m203-217l1-291 196-207 144 138z" horiz-adv-x="1083" />

<glyph glyph-name="cart" unicode="&#xe809;" d="M32 849c-15-3-27-15-31-31-5-20 10-41 31-46l77-15 46-558c5-67 61-118 128-118h558c67 0 118 46 138 107l46 338c5 62-35 113-92 123h-737l-11 144c0 20-15 31-30 36l-108 20c-5 1-10 1-15 0z m164-276l286-6h349 82c10 0 15-5 20-10 5-5 5-10 5-20l-51-338c0-26-26-46-51-46h-558c-26 0-52 25-52 51z m420-103c-26 0-41-15-41-41 0-25 20-41 41-41h143c21 0 41 16 41 41 0 26-20 41-41 41z m-359-486c-36 0-67-31-67-67 0-36 31-67 67-67 41 0 67 26 67 67 0 36-31 67-67 67z m579-1c-36 0-67-31-67-67 0-35 31-66 67-66 36 0 66 26 66 66 0 36-30 67-66 67z" horiz-adv-x="1026" />

<glyph glyph-name="burger" unicode="&#xe80a;" d="M0 850v-182h4546v182z m0-818v-182h4546v182z" horiz-adv-x="4545" />

<glyph glyph-name="check" unicode="&#xe80b;" d="M1261 850a88 88 0 0 1-60-28l-720-756-328 344a88 88 0 1 1-128-121l392-412a88 88 0 0 1 128 0l783 823a88 88 0 0 1-59 150 88 88 0 0 1-8 0z" horiz-adv-x="1353" />

<glyph glyph-name="chevrone-right" unicode="&#xe80c;" d="M100 850l-100-100 400-400-400-400 100-100 500 500z" horiz-adv-x="600" />

<glyph glyph-name="click" unicode="&#xe80d;" d="M253 850c-15-3-30-4-44-8-110-30-180-101-203-211-19-92 7-174 73-243 12-13 30-13 42-2 13 11 14 29 1 42-23 23-40 52-51 83-44 125 42 263 175 278 66 8 124-10 174-55 6-5 13-10 21-12 13-4 25 3 31 14 3 6 4 12 3 18 0 6-3 12-8 16-45 45-104 73-167 79-2 0-4 0-6 1z m17-100c-77-2-141-54-159-133-3-11-3-23-4-29 1-50 16-88 46-120 13-14 31-16 44-5 13 11 13 29 0 44-46 52-40 126 15 165 20 14 45 21 70 20 25-2 48-11 67-28 8-7 16-14 28-12 12 1 21 8 25 19 2 6 2 11 1 17-1 5-4 10-8 14-26 25-56 41-92 46-11 2-22 3-33 2z m26-113c-30 0-53-13-66-39-14-28-12-56 8-79 27-30 56-58 85-87 23-24 47-47 72-70 5-5 6-10 3-17-30-74-45-153-44-233 0-19 1-37 4-56 2-20 14-35 31-47 62-40 126-76 197-98 30-10 57-25 83-44 35-25 68-23 99 8 44 44 88 87 132 131 30 31 41 67 28 109-3 9-7 17-12 25-32 57-50 119-58 185-2 24-9 47-20 69-25 50-52 100-69 154-4 14-7 28-11 42-10 35-41 51-76 39-35-12-59-45-63-84-3-28 0-57 10-83 6-17 11-34 16-51l-2-2c-10 5-21 10-31 16-89 65-179 129-269 194-14 10-29 18-47 18z m-4-60c3 0 6 0 8 0 4-1 7-4 11-7 89-64 179-129 269-193 23-17 48-27 77-27 38 0 59 26 49 62-7 25-15 50-23 75-6 18-9 35-5 54 2 13 7 27 23 32 4-13 7-27 11-40 17-55 44-107 69-158 9-19 17-38 19-59 8-74 29-143 66-208 14-23 11-41-8-60-44-44-89-88-133-133-7-6-12-7-20-1-30 23-64 41-100 53-66 20-125 53-181 90-3 2-5 4-6 6-1 2-2 5-2 7-10 93 6 182 43 267 11 26 9 36-11 56-53 51-105 103-157 155-4 4-8 8-9 12-1 5 0 12 3 15 2 1 4 2 7 2z" horiz-adv-x="933" />

<glyph glyph-name="code" unicode="&#xe80e;" d="M196 739c7-1 14-3 19-9 5-5 8-12 8-19 0-7-3-14-8-19-5-6-12-9-20-9-7 0-14 3-19 8-6 5-9 13-9 20 0 4 1 7 2 11 2 3 4 6 7 9 2 2 5 4 9 6 3 1 7 2 11 2z m194-28c0 4 1 7 2 11 1 3 3 6 6 9 2 2 5 4 9 5 3 2 7 3 10 3 4 0 7-1 11-2 3-2 6-4 9-6 3-3 5-6 6-9 2-4 2-7 2-11 0-7-3-14-8-19-5-5-12-8-19-9-4 0-7 1-11 2-3 2-6 4-9 7-2 2-4 5-6 9-1 3-2 7-2 10z m-56 0c0-7-3-14-8-19-5-6-12-8-19-9-8 1-15 4-20 9-5 5-8 12-8 20 0 3 1 7 2 10 2 4 4 7 6 9 3 3 6 5 10 6 3 1 7 2 11 2 3-1 7-1 10-3 3-1 6-3 8-6 3-2 5-6 6-9 1-3 2-7 2-10z m548-472l-89 111c-2 3-4 6-7 10-10 14-9 29 3 39 12 10 30 8 41-5 25-31 50-62 75-94 11-13 22-27 33-41 11-14 11-26 1-39-36-45-72-90-109-135-12-15-28-17-41-6-13 11-13 26-2 41 30 37 60 74 90 112 1 2 3 4 5 7z m-540 0l53-66c14-18 28-35 41-52 13-16 12-32-1-43-14-10-30-7-42 8-35 44-71 88-106 133-12 14-12 25 0 41 36 44 71 88 107 133 11 14 29 16 41 6 13-10 14-26 2-41-29-37-58-73-88-110-2-3-4-6-7-9z m189-222c-20 0-33 16-29 33 1 4 2 9 4 13 54 124 108 249 161 374 8 18 17 25 31 24 19-2 31-21 22-40-13-32-26-63-40-95-41-95-82-191-123-286-5-13-13-23-26-23z m80-167h-485c-76 0-126 50-126 126 0 250 0 499 0 748 0 76 50 126 126 126h973c76 0 125-50 125-126 0-249 0-499 0-748 0-76-49-126-125-126z m-555 724v-15c0-194 0-389 0-583 0-47 25-71 71-71h970c47 0 71 24 71 71 0 212 0 424 0 636v15c-5 1-8 1-12 1-167 0-334 0-501 0-6 0-12-1-18-3-39-15-78-31-117-46-9-3-19-5-28-5-140 0-279 0-419 0z m1112 109c0 15 0 28 0 42 0 45-24 70-70 70h-972c-3 0-5 0-8 0-36-2-61-27-62-64 0-30 0-61 0-91 0-4 1-7 1-10 4 0 7-1 10-1 140 0 280 0 420 0 6 0 13 2 19 4 38 15 76 30 114 44 10 4 21 6 31 6 167 0 334 1 501 0z" horiz-adv-x="1224" />

<glyph glyph-name="close" unicode="&#xe80f;" d="M69 850l-69-69 431-431-431-431 69-69 431 432 431-432 69 69-431 431 431 431-69 69-431-431z" horiz-adv-x="1000" />

<glyph glyph-name="dev1" unicode="&#xe810;" d="M294 850l-294-500 289-491 30 17-279 474 274 465h419v35z m592-9l-30-17 278-474-273-465h-418v-35h438l294 500z m-525-103l-223-379 30-18 213 363h426v34z m193-99v-35h183l149-254-154-263 30-17 164 280-169 289z m-141-9l-165-280 170-289h189v35h-169l-149 254 154 263z m480-23l-30-18 141-239-207-354h-416l-143 244-30-17 153-261h456l227 388z" horiz-adv-x="1175" />

<glyph glyph-name="dev2" unicode="&#xe811;" d="M748 853c-5 0-10 0-16 0-50-2-100-18-143-50-42-31-72-73-89-119-30 79-97 142-185 162-18 4-35 6-53 7-120 3-231-80-259-202-29-128 43-256 163-301-34-13-66-32-93-60-101-101-101-266 0-367 102-101 266-101 368 0 27 27 47 59 59 93 37-99 132-169 243-169 144 0 260 116 260 260 0 111-71 206-169 243 22 8 43 20 63 34 116 85 140 248 55 364-49 67-126 104-204 105z m-22-34v-209h-208c5 64 36 125 91 165 36 27 76 41 117 44z m34 0c6-1 12-1 17-2 57-9 111-39 148-90 26-35 40-76 43-117h-208z m-520-1v-208h-208c0 11 2 22 4 33 23 100 108 168 204 175z m34 0c11-1 22-2 33-5 99-22 168-107 175-203h-208z m-243-242h209v-208c-11 1-23 2-34 5-99 23-168 107-175 203z m243 0h208c-1-11-3-22-5-33-23-100-107-168-203-175z m244 0h208v-208c-63 5-124 36-165 92-26 35-40 76-43 116z m242 0h208c-4-63-36-124-91-164-35-27-76-41-117-44z m-260-73c8-22 19-44 34-64 31-42 73-72 119-89-70-26-126-82-153-153-12 34-32 66-59 93-28 28-59 47-93 60 69 26 125 81 152 153z m243-170c57 0 108-21 148-55l-148-147-147 147c40 34 91 55 147 55z m-469-1c52-4 103-26 143-66 40-39 61-90 65-142h-208z m-34 0v-208h-208c4 52 25 103 65 142 40 40 91 62 143 66z m332-78l147-147-147-148c-34 40-55 91-55 148 0 56 21 107 55 147z m343 0c34-40 54-91 54-147 0-57-20-108-54-148l-148 148z m-883-164h208v-209c-52 4-103 26-143 66-40 40-61 91-65 143z m242 0h208c-4-52-25-103-65-143-40-40-91-62-143-66z m469-7l148-148c-40-34-91-54-148-54-56 0-107 20-147 54z" horiz-adv-x="1000" />

<glyph glyph-name="dev3" unicode="&#xe812;" d="M500 855c-278 0-505-226-505-505 0-278 227-505 505-505 142 0 271 59 363 154 0 0 0 0 0 0a18 18 0 0 1 6 7c84 90 136 211 136 344 0 279-226 505-505 505z m0-35c260 0 470-210 470-470 0-125-49-238-128-322-287-142-496 65-496 66-121 120-122 316 0 437 95 95 250 95 345 0 75-75 75-196 0-271-59-58-153-58-212 0a18 18 0 0 1 0 0c-46 45-46 119 0 164a18 18 0 0 1 0 1c35 35 91 35 126-1 27-26 27-69 0-96-19-20-52-20-72 0-15 15-15 38 0 53 11 10 27 10 37 0a18 18 0 1 1 25 24c-24 24-63 24-87 0-28-28-28-74 0-102l0 0c34-33 89-33 122 0 40 40 40 106 0 146-49 49-128 49-176 0 0 0 0 0 0 0-59-59-59-155 0-214 72-72 189-72 262 0a18 18 0 0 1 0 0c88 89 88 232 0 321-54 54-126 81-197 81-72 0-144-27-198-81-135-135-135-353 0-487l0 0c0 0 184-179 442-109-75-50-166-80-263-80-259 0-470 211-470 470 0 260 211 470 470 470z" horiz-adv-x="1000" />

<glyph glyph-name="dev4" unicode="&#xe813;" d="M500 850a16 16 0 0 1-2 0h-480a16 16 0 0 1-2 0 16 16 0 0 1-2 0h-14v-14a16 16 0 0 1 0-5v-962a16 16 0 0 1 0-5v-14h13a16 16 0 0 1 6 0h981v497a16 16 0 0 1 0 5v498h-17-480a16 16 0 0 1-3 0z m-444-33h428v-428z m461 0h450v-451h-450z m-484-23l444-444-444-444z m708-78c-68 0-124-56-124-125 0-68 56-124 124-124 69 0 125 56 125 124 0 69-56 125-125 125z m0-33c51 0 92-41 92-92 0-50-41-91-92-91-50 0-91 41-91 91 0 51 41 92 91 92z m-234-350h460v-450h-911z m127-231a16 16 0 1 1 0-32h216a16 16 0 1 1 0 32z" horiz-adv-x="1000" />

<glyph glyph-name="drag-arrow-left" unicode="&#xe814;" d="M500 850l-417-417-83-83 83-83 417-417 84 83-417 417 416 417z" horiz-adv-x="583" />

<glyph glyph-name="drag-arrow-right" unicode="&#xe815;" d="M83 850l-83-83 417-417-417-417 83-83 417 417 83 83-83 84z" horiz-adv-x="583" />

<glyph glyph-name="infobox" unicode="&#xe816;" d="M0 850v-37-963h1000v1000z m75-75h850v-850h-850z m125-175v-19-56h600v75z" horiz-adv-x="1000" />

<glyph glyph-name="link-arrow" unicode="&#xe817;" d="M101 850l-101-101 757-757h-468v-142h711v711h-142v-468z" horiz-adv-x="1000" />

<glyph glyph-name="link-arrow-alt" unicode="&#xe818;" d="M289 850v-142h468l-757-757 101-101 757 757v-468h142v711z" horiz-adv-x="1000" />

<glyph glyph-name="logo-arrow" unicode="&#xe819;" d="M1 850v-280h520c-21-21-319-318-521-519l7-7-7-7 188-187 805 802-2 198z m21-21h948l1-168-783-781-165 164c209 208 531 529 531 529l18 18h-550z m971-329l-281-280v-20-346h281z m-22-51v-574h-238v325 11z" horiz-adv-x="993" />

<glyph glyph-name="logo-arrow-alt" unicode="&#xe81a;" d="M4 850v-266h524l-528-550 176-184 778 813 2 187z m950-375l-254-266v-15-344h254z" horiz-adv-x="956" />

<glyph glyph-name="menu" unicode="&#xe81b;" d="M100 850c-55 0-100-45-100-100 0-55 45-100 100-100 55 0 100 45 100 100 0 55-45 100-100 100z m400 0c-55 0-100-45-100-100 0-55 45-100 100-100 55 0 100 45 100 100 0 55-45 100-100 100z m400 0c-55 0-100-45-100-100 0-55 45-100 100-100 55 0 100 45 100 100 0 55-45 100-100 100z m-800-400c-55 0-100-45-100-100 0-55 45-100 100-100 55 0 100 45 100 100 0 55-45 100-100 100z m800 0c-55 0-100-45-100-100 0-55 45-100 100-100 55 0 100 45 100 100 0 55-45 100-100 100z m-800-400c-55 0-100-45-100-100 0-55 45-100 100-100 55 0 100 45 100 100 0 55-45 100-100 100z m400 0c-55 0-100-45-100-100 0-55 45-100 100-100 55 0 100 45 100 100 0 55-45 100-100 100z m400 0c-55 0-100-45-100-100 0-55 45-100 100-100 55 0 100 45 100 100 0 55-45 100-100 100z" horiz-adv-x="1000" />

<glyph glyph-name="minus" unicode="&#xe81c;" d="M0 433v-166h1000v166z" horiz-adv-x="1000" />

<glyph glyph-name="plus" unicode="&#xe81d;" d="M417 850v-417h-417v-166h417v-417h166v417h417v166h-417v417z" horiz-adv-x="1000" />

<glyph glyph-name="pin" unicode="&#xe81e;" d="M621 850c-27 0-55-11-75-32-41-41-44-109 0-153l19-19-160-161c-138 50-294 13-397-89-12-12-10-29 0-39l231-230-173-173c-12-12-10-29 0-39 10-10 28-10 38 0l173 174 231-231c9-10 27-11 38 0 105 104 138 266 89 397l161 160 19-19c44-44 112-41 153 0 43 42 43 111 0 153l-268 269c-23 22-51 32-79 32z m2-54c14 0 28-5 38-16l269-269c22-23 20-57 0-77-21-21-56-21-77 0l-38 39c-12 11-29 9-39 0l-192-192c-5-6-11-18-6-30 45-103 28-242-52-335l-460 460c99 84 228 96 335 52 10-4 22-1 30 6l192 192c11 12 10 29 0 39l-39 38c-22 23-20 57 0 77 11 11 25 16 39 16z" horiz-adv-x="1000" />

<glyph glyph-name="quote" unicode="&#xe81f;" d="M552 850v-1000l414 138v862z m-552-207v-793l414 138v655z" horiz-adv-x="966" />

<glyph glyph-name="responsive" unicode="&#xe820;" d="M339 850c-9 0-18-1-27-3l0 0c-39-10-64-43-64-85v-1 0-1 0-1 0-1 0-1 0-1 0-1 0-1 0 0-1 0-1 0-1 0-1 0-1 0-1 0-1 0-1 0-1 0-1 0-1 0-1 0-1 0-1 0-1 0-1 0 0-1 0-1 0-1 0-1 0-1 0-1 0-1 0-1 0-1 0-1 0-1 0-1 0-1 0-1 0-1 0-1 0-1 0-1 0 0-1 0-1 0-1 0-1 0-1 0-1 0-1 0-1 0-1 0-1 0-1 0-1 0-1 0-1 0-1 0-1 0-1 0 0-1 0-1 0-1 0-1 0-1 0-1 0-1 0-1 0-1 0-1 0-1 0-1 0-1 0-1 0-1 0-1 0-1 0 0-1 0-1 0-1 0-1 0-1 0-1 0-1 0-1 0-1 0-1 0-1 0-1 0-1 0-1 0-1 0-1 0-1 0-1 0 0-1 0-1 0-1 0-1 0-1 0-1 0-1 0-1 0-1 0-1 0-1 0-1 0-1 0-1 0-1 0-1 0-1 0 0-1 0-1 0-1 0-1 0-1 0-1 0-1 0-1 0-1 0-1 0-1 0-1 0-1 0-1 0-1 0-1 0-1 0 0-1 0-1 0-1 0-1 0-1 0-1 0-1 0-1 0-1 0-1 0-1 0-1 0-1 0-1 0-1 0-1 0-1 0-1 0 0-1 0-1 0-1 0-1 0-1 0-1 0-1 0-1 0-1 0-1 0-1 0-1 0-1 0-1 0-1 0-1 0-1 0 0-1 0-1 0-1 0-1 0-1 0-1 0-1 0-1 0-1 0-1 0-1 0-1 0-1 0-1 0-1 0-1 0-1 0-1 0 0-1 0-1 0-1 0-1 0-1 0-1 0-1 0-1 0-1 0-1 0-1 0-1 0-1 0-1 0-1 0-1 0-1 0 0-1 0-1 0-1 0-1 0-1 0-1 0-1 0-1 0-1 0-1 0-1 0-1 0-1 0-1 0-1 0-1 0-1 0-1 0 0-1 0-1 0-1 0-1 0-1 0-1 0-1 0-1 0-1 0-1 0-1 0-1 0-1 0-1 0-1 0-1 0-1 0-1 0 0-1 0-1 0-1 0-1 0-1 0-1 0-1 0-1 0-1 0-1 0-1 0-1 0-1 0-1 0-1 0-12h-11c-45 0-90 0-135 0-9 0-18 0-27-2h0c-45-10-75-48-75-96v0-1-1-1-1-1-1-1-1 0-1-1-1-1-1-1-1 0-1-1-1-1-1-1-1 0-1-1-1-1-1-1-1-1 0-1-1-1-1-1-1-1 0-1-1-1-1-1-1-1 0-1-1-1-1-1-1-1 0-1-1-1-1-1-1-1-1 0-1-1-1-1-1-1-1 0-1-1-1-1-1-1-1 0-1-1-1-1-1-1-1 0-1-1-1-1-1-1-1-1 0-1-1-1-1-1-1-1 0-1-1-1-1-1-1-1 0-1-1-1-1-1-1-1-1 0-1-1-1-1-1-1-1 0-1-1-1-1-1-1-1 0-1-1-1-1-1-1-1 0-1-1-1-1-1-1-1-1 0-1-1-1-1-1-1-1 0-1-1-1-1-1-1-1 0-1-1-1-1-1-1-1-1 0-1-1-1-1-1-1-1 0-1-1-1-1-1-1-1 0-1-1-1-1-1-1-1-1 0-1-1-1-1-1-1-1 0-1-1-1-1-1-1-1 0-1-1-1-1-1-1-1 0-1-1-1-1-1-1-1-1 0-1-1-1-1-1-1-1 0-1-1-1-1-1-1-1 0-1-1-1-1-1-1-1-1 0-1-1-1-1-1-1-1 0-1-1-1-1-1-1-1 0-1-1-1-1-1-1-1-1 0-1-1-1-1-1-1-1 0-1-1-1-1-1-1-1 0-1-1-1-1-1-1-1 0-1-1-1-1-1-1-1-1 0-1-1-1-1-1-1-1 0-1-1-1-1-1-1-1 0-1-1-1-1-1-1-1-1 0-1-1-1-1-1-1-1 0-1-1-1-1-1-1-1 0-1-1-1-1-1-1-1 0-1-1-1-1-1-1-1-1 0-1-1-1-1-1-1-1 0-1-1-1-1-1-1-1 0-1-1-1-1-1-1-1 0-1-1-1-1-1-1-1-1 0-1-1-1-1-1-1-1 0-1-1-1-1-1-1-1 0-1-1-1-1-1-1-1-1 0-1-1-1-1-1-1-1 0-1-1-1-1-1-1-1 0-1-1-1-1-1-1-1-1-1 0-1-1-1-1-1-1-1 0-1-1-1-1-1-1-1 0-1-1-1-1-1-1-1 0-1-1-1-1-1-1-1-1 0-1-1-1-1-1-1-1 0-1-1-1-1c0-31 10-57 28-75 18-18 44-28 75-28 84 0 169 0 254 0 9 0 19 1 28 3h0c46 10 74 48 74 98v0 1 0 0 1 0 0 1 0 1 0 0 1 0 1 0 0 1 0 0 1 0 1 0 0 1 0 1 0 0 1 0 0 1 0 1 0 0 1 0 1 0 0 1 0 1 0 0 1 0 0 1 0 1 0 0 1 0 1 0 0 1 0 0 1 0 1 0 0 1 0 1 0 0 1 0 1 0 0 1 0 0 1 0 1 0 0 1 0 1 0 0 1 0 0 1 0 1 0 0 1 0 1 0 0 1 0 0 1 0 1 0 0 1 0 1 0 0 1 0 1 0 0 1 0 0 1 0 1 0 0 1 0 1 0 0 1 0 1 0 0 1 0 1 0 0 1 0 0 1 0 1 0 0 1 0 1 0 0 1 0 1 0 0 1 0 0 1 0 1 0 0 1 0 1 0 0 1 0 0 1 0 1 0 0 1 0 1 0 0 1 0 0 1 0 1 0 0 1 0 1 0 0 1 0 1 0 0 1 0 0 1 0 1 0 0 1 0 1 0 0 1 0 0 1 0 1 0 0 1 0 1 0 0 1 0 0 1 0 1 0 0 1 0 1 0 0 1 0 0 1 0 1 0 0 1 0 1 0 0 1 0 1 0 0 1 0 0 1 0 1 0 0 1 0 1 0 0 1 0 0 1 0 1 0 0 1 0 1 0 0 1 0 1 0 0 1 0 0 1 0 1 0 0 1 0 1 0 0 1 0 0 1 0 1 0 0 1 0 1 0 0 1 0 0 1 0 1 0 0 1 0 1 0 0 1 0 1 0 0 1 0 0 1 0 1 0 0 1 0 1 0 0 1 0 0 1 0 1 0 0 1 0 1 0 0 1 0 1 0 0 1 0 0 1 0 1 0 0 1 0 1 0 0 1 0 0 1 0 1 0 0 1 0 1 0 0 1 0 0 1 0 1 0 0 1 0 1 0 0 1 0 0 1 0 1 0 0 1 0 1 0 0 1 0 1 0 0 1 0 0 1 0 1 0 0 1 0 1 0 0 1 0 0 1 0 1 0 0 1 0 1 0 0 1 0 0 1 0 1 0 0 1 0 1 0 0 1 0 1 0 0 1 0 0 1 0 1 0 0 1 0 1 0 0 1 0 0 1 0 1 0 0 1 0 1 0 0 1 0 1 0 0 1 0 0 1 0 1 0 0 1 0c0 4 0 7 0 11h126c0-26 0-51-1-75 0 0 0 0 0 0 0-1 0-1-1-2-1 0-1 0-2-1-1 0-1 0-1 0h0c-14-1-28 0-43 0-7 0-14-2-18-6-5-4-7-10-7-16 0-7 2-12 7-16 4-4 11-5 18-5h1 0 1 0 1 1 0 1 0 1 1 0 1 0 1 0 1 1 0 1 0 1 1 0 1 0 1 1 0 1 0 1 1 0 1 0 1 0 1 1 0 1 0 1 1 0 1 0 1 1 0 1 0 1 1 0 1 0 1 0 1 1 0 1 0 1 1 0 1 0 1 1 0 1 0 1 1 0 1 0 1 0 1 1 0 1 0 1 1 0 1 0 1 1 0 1 0 1 0 1 1 0 1 0 1 1 0 1 0 1 1 0 1 0 1 1 0 1 0 1 0 1 1 0 1 0 1 1 0 1 0 1 1 0 1 0 1 1 0 1 0 1 0 1 1 0 1 0 1 1 0 1 0 1 1 0 1 0 1 0 1 1 0 1 0 1 1 0 1 0 1 1 0 1 0 1 1 0 1 0 1 0 1 1 0 1 0 1 1 0 1 0 1 1 0 1 0 1 1 0 1 0 1 0 1 1 0 1 0 1 1 0 1 0 1 1 0 1 0 1 0 1 1 0 1 0 1 1 0 1 0 1 1 0 1 0 1 1 0 1 0 1 0 1 1 0 1 0 1 1 0 1 0 1 1 0 1 0 1 1 0 1 0 1 0 1 1 0 1 0 1 1 0 1 0 1 1 0 1 0 1 0 1 1 0 1 0 1 1 0 1 0 1 1 0 1 0 1 1 0 1 0 1 0 1 1 0 1 0 1 1 0 1 0 1 1 0 1 0 1 0 1 1 0 1 0 1 1 0 1 0 1 1 0 1 0 1 1 0 1 0 1 0 1 1 0 1 0 1 1 0 1 0 1 1 0 1 0 1 0 1 1 0 1 0 1 1 0 1 0 1 1 0 1 0 1 1 0 1 0 1 0 1 1 0 1 0 1 1 0 1 0 1 1 0 1 0 1 1 0 1 0 1 0 1 1 0 1 0 1 1 0 1 0 1 1 0 1 0 1 0 1 1 0 1 0 1 1 0 1 0 1 1 0 1 0 1 1 0 1 0 1 0 1 1 0 1 0 1 1 0 1 0 1 1 0 1 0 1 0 1 1 0 1 0 1 1 0 1 0 1 1 0 1 0 1 1 0 1 0 1 0 1 1 0 1 0 1 1 0 1 0 1 1 0 1 0 1 0 1 1 0 1 0 1 1 0 1 0 1 1 0c8 0 14 2 19 5 5 4 7 10 7 17v0c0 6-2 11-7 15-4 4-11 6-18 6h0c-7 0-15 0-22 0-7 0-14 0-22 0 0 0 0 0-1 0-1 1-1 1-2 2-1 0-1 0-1 1l0 0c-1 24-1 49-1 74h131v-11c0-41 0-81 0-121 1-44 30-75 72-76 50 0 100 0 150 0 15 0 30 5 42 14 12 9 21 22 26 37l0 0c1 2 2 5 3 8l0 1v0 323 0l0 1c-1 2-2 4-2 6h0c-5 15-14 28-26 38-13 9-28 14-44 14-5 0-10 0-16 0v13c0 118 0 236 0 354 0 27-9 50-25 66-15 15-38 24-66 24h-1-1-2-1-1-2-1-1-6-3-2-2-1-3-1-2-1-1-6-2-2-1-1-2-3-1-1-2-1-1-2-1-1-2-1-3-3-1-1-2-1-1-2-1-2-1-1-2-1-1-2-2-2-1-3-3-2-2-1-3-1-2-5-5-2-1-1-2-3-1-1-11-2-1-3-1-1-2-1-11-1-2-1-1-2-1-2-1-1-2-2-2-1-3-3-2-2-1-1-2-1-1-3-3-3-2-2-1-6-10-2-1-1-2-5-11-2-1-3-5-6-2-2-1-1-2-1-1-3-2-1-1-2-2-2-1-3-5-6-5-1-2-3-10-3-2-1-1-2-2-2-1-3-1-2-1-1-6-5-2-1-3-5-6-5-5-2-1-1-2-3-1-1-3-3-2-3-6-1-1-3-3-1-2-5-5-3-3-1-2-1-1-6-5-2-1-1-2-1-1-2-1-2-1-1-2-1-1-2-1-1-2-1-1-2-1-2-1-1-2-1-1-2-1-3-5-2-1-1-2-1-1-2-1-2-1-1-2-1-1-3-1-2-1-2-5-1-2-1-1-6-1-2-2-2-1-1-2-3-1-1-2-1-1-2-1-1-3-6-1-1-2-1-1-2-1-1-3-3-3-1-1-6-1-2-1-1-3-3-2-2-1-2-1-3-2-2-1-1-2-1-2-1-1-3-1-2-1-1-6-1-2-1-1-3-1-2-1-1-3-2-1-1-2-2-2-1-3-1-2-1-1-2z m0-43h697c16 0 28-5 36-12 7-8 12-19 12-35v-1-1 0-1-1 0-1-1 0-1-1-1 0-1-1 0-1-1 0-1-1-1 0-1-1 0-1-1 0-1-1 0-1-1-1 0-1-1 0-1-1 0-1-1-1 0-1-1 0-1-1 0-1-1 0-1-1-1 0-1-1 0-1-1 0-1-1-1 0-1-1 0-1-1 0-1-1-1 0-1-1 0-1-1 0-1-1 0-1-1-1 0-1-1 0-1-1 0-1-1-1 0-1-1 0-1-1 0-1-1-1 0-1-1 0-1-1 0-1-1 0-1-1-1 0-1-1 0-1-1 0-1-1-1 0-1-1 0-1-1 0-1-1 0-1-1-1 0-1-1 0-1-1 0-1-1-1 0-1-1 0-1-1 0-1-1-1 0-1-1 0-1-1 0-1-1 0-1-1-1 0-1-1 0-1-1 0-1-1-1 0-1-1 0-1-1 0-1-1 0-1-1-1 0-1-1 0-1-1 0-1-1-1 0-1-1 0-1-1 0-1-1-1 0-1-1 0-1-1 0-1-1 0-1-1-1 0-1-1 0-1-1 0-1-1-1 0-1-1 0-1-1 0-1-1 0-1-1-1 0-1-1 0-1-1 0-1-1-1 0-1-1 0-1-1 0-1-1-1 0-1-1 0-1-1 0-1-1 0-1-1-1 0-1-1 0-1-1 0-1-1-1 0-1-1 0-1-1 0-1-1-1 0-1-1 0-1-1 0-1-1 0-1-1-1 0-1-1 0-1-1 0-1-1-1 0-1-1 0-1-1 0-1-1 0-1-1-1 0-1-1 0-1-1 0-1-1-1 0-1-1 0-1-1 0-1-1-1 0-1-1 0-1-1 0-1-1 0-1-1-1 0-1-1 0-1-1 0-1-1-1 0-1-1 0-1-1 0-1-1-1 0-1-1 0-1-1 0-1-1 0-1-1-1 0-1-1 0-1-1 0-1-1-1 0-1-1 0-1-1 0-1-1 0-1-1-1 0-1-1 0-1-1 0-1-1-1 0-1-1 0-1-1 0-1-1 0-1-1-1 0-1-1 0-1-1 0-1-1-1 0-1-1 0-1-1 0-1-1-1 0-1-1 0-1-1 0-1-1 0-1-1-1 0-1-1 0-1-1 0-1-1-1 0-1-1 0-1-1 0-1-1-10h-34 0 0 0 0-1 0 0 0 0 0 0 0 0 0 0-1 0 0 0 0 0 0 0 0 0 0-1 0 0 0 0 0 0 0 0 0 0-1 0 0 0 0 0 0 0 0 0 0-1 0 0 0 0 0 0 0 0 0 0-1 0 0 0 0 0 0 0 0 0 0-1 0 0 0 0 0 0 0 0 0 0-1 0 0 0 0 0 0 0 0 0 0-1 0 0 0 0 0 0 0 0 0 0-1 0 0 0 0 0 0 0 0 0 0-1 0 0 0 0 0 0 0 0 0 0 0-1 0 0 0 0 0 0 0 0 0-1 0 0 0 0 0 0 0 0 0 0-1 0 0 0 0 0 0 0 0 0 0-1 0 0 0 0 0 0 0 0 0 0-1 0 0 0 0 0 0 0 0 0 0-1 0 0 0 0 0 0 0 0 0 0-1 0 0 0 0 0 0 0 0 0 0-1 0 0 0 0 0 0 0 0 0 0-1 0 0 0 0 0 0 0 0 0 0-1 0 0 0 0 0 0 0 0 0 0-1 0 0 0 0 0 0 0 0 0 0-1 0 0 0 0 0 0 0 0 0 0 0 0-1 0 0 0 0 0 0 0 0 0-1 0 0 0 0 0 0 0 0 0 0 0-1 0 0 0 0 0 0 0 0 0 0-1 0 0 0 0 0 0 0 0 0 0-1 0 0 0 0 0 0 0 0 0 0-1 0 0 0 0 0 0 0 0 0 0-1 0 0 0 0 0 0 0 0 0 0-1 0 0 0 0 0 0 0 0 0 0-1 0 0 0 0 0 0 0 0 0 0-1 0 0 0 0 0 0 0 0 0 0-1 0 0 0 0 0 0 0 0 0 0-1 0 0 0 0 0 0 0 0 0 0-1 0 0 0 0 0 0 0 0 0 0-1 0 0 0 0 0 0 0 0 0 0-1 0 0 0 0 0 0 0 0 0 0-1 0 0 0 0 0 0 0 0 0 0-1 0 0 0 0 0 0 0 0 0 0 0-1 0 0 0 0 0 0 0 0 0 0-1 0 0 0 0 0 0 0 0 0 0-1 0 0 0 0 0 0 0 0 0 0-1 0 0 0 0 0 0 0 0 0 0-1 0 0 0 0 0 0 0 0 0 0-1 0 0 0 0 0 0 0 0 0c-26 0-45-6-59-19-14-12-21-31-24-55h-463c0 18 1 36 0 54 0 17 1 36-2 53-8 45-47 76-93 76-23 1-46 0-71 0v10 1 0 0 1 0 1 0 1 0 1 0 1 0 1 0 1 0 1 0 1 0 1 0 1 0 1 0 1 0 1 0 1 0 0 1 0 1 0 1 0 1 0 1 0 1 0 1 0 1 0 1 0 1 0 1 0 1 0 1 0 1 0 1 0 0 1 0 1 0 1 0 1 0 1 0 1 0 1 0 1 0 1 0 1 0 1 0 1 0 1 0 1 0 1 0 0 1 0 1 0 1 0 1 0 1 0 1 0 1 0 1 0 1 0 1 0 1 0 1 0 1 0 1 0 0 1 0 1 0 1 0 1 0 1 0 1 0 1 0 1 0 1 0 1 0 1 0 1 0 1 0 1 0 1 0 0 1 0 1 0 1 0 1 0 1 0 1 0 1 0 1 0 1 0 1 0 1 0 1 0 1 0 1 0 1 0 0 1 0 1 0 1 0 1 0 1 0 1 0 1 0 1 0 1 0 1 0 1 0 1 0 1 0 1 0 1 0 0 1 0 1 0 1 0 1 0 1 0 1 0 1 0 1 0 1 0 1 0 1 0 1 0 1 0 1 0 1 0 0 1 0 1 0 1 0 1 0 1 0 1 0 1 0 1 0 1 0 1 0 1 0 1 0 1 0 1 0 0 1 0 1 0 1 0 1 0 1 0 1 0 1 0 1 0 1 0 1 0 1 0 1 0 1 0 1 0 1 0 0 1 0 1 0 1 0 1 0 1 0 1 0 1 0 1 0 1 0 1 0 1 0 1 0 1 0 1 0 1 0 0 1 0 1 0 1 0 1 0 1 0 1 0 1 0 1 0 1 0 1 0 1 0 1 0 1 0 1 0 0 1 0 1 0 1 0 1 0 1 0 1 0 1 0 1 0 1 0 1 0 1 0 1 0 1 0 1 0 1 0 0 1 0 1 0 1 0 1 0 1 0 1 0 1 0 1 0 1 0 1 0 1 0 1 0 1 0 1 0 0 1 0 1 0 1 0 1 0 1 0 1 0 1 0 1 0 1 0 1 0 1 0 1 0 1 0 1 0 1 0 1 0 0 1 0 1 0 1 0 1 0 1 0 1 0 1 0 1 0 1 0 1 0 1 0 1 0 1 0 1 0 0 1 0 1 0 1 0 1 0 1 0 1 0 1 0 1 0 1 0 1 0 1c0 16 4 27 12 35 8 7 19 12 35 12z m-235-349h0 1 0 1 0 1 0 0 1 0 1 0 1 0 1 0 1 0 1 0 1 0 1 0 1 0 1 0 1 0 1 0 1 0 1 0 1 0 1 0 1 0 1 0 1 0 1 0 1 0 1 0 1 0 1 0 1 0 1 0 1 0 1 0 1 0 1 0 1 0 1 0 1 0 1 0 1 0 1 0 1 0 1 0 1 0 1 0 1 0 1 0 1 0 1 0 1 0 1 0 1 0 1 0 1 0 1 0 1 0 1 0 1 0 1 0 1 0 1 0 1 0 1 0 1 0 1 0 1 0 1 0 1 0 1 0 1 0 1 0 1 0 1 0 1 0 1 0 1 0 1 0 1 0 1 0 1 0 1 0 1 0 1 0 1 0 1 0 1 0 1 0 1 0 1 0 1 0 1 0 1 0 1 0 1 0 1 0 1 0 1 0 1 0 1 0 1 0 1 0 1 0 1 0 1 0 1 0 1 0 1 0 1 0 0 1 0 1 0 1 0 1 0 1 0 1 0 1 0 1 0 1 0 1 0 1 0 1 0 1 0 1 0 1 0 1 0 1 0 1 0 1 0 1 0 1 0 1 0 1 0 1 0 1 0 1 0 1 0 1 0 1 0 1 0 1 0 1 0 1 0 1 0 1 0 1 0 1 0 1 0 1 0 1 0 1 0 1 0 1 0 1 0 1 0 1 0 1 0 1 0 1 0 1 0 1 0 1 0 1 0 1 0 1 0 1 0 1 0 1 0 1 0 1 0 1 0 1 0 1 0 1 0 1 0 1 0 1 0 1 0 1 0 1 0 1 0 1 0 1 0 1 0 1 0 1 0 1 0 1 0 1 0 1 0 1 0 1 0 1 0 1 0 1 0 1 0 1 0 1 0 1 0 1 0 1 0 1 0 1 0 1 0 1 0 1 0 1 0 1 0 1 0 1 0 1 0 1 0 1 0 1 0 1 0 0 1 0 1 0 1 0 1 0 1 0 1 0 1 0 1 0 1 0 1 0 1 0 1 0 1 0 1 0 1 0 1 0 1 0 1 0 1 0 1 0 1 0 1 0 1 0 1 0 1 0 1 0 1 0 1 0 1 0 1 0 1 0 1 0 1 0 1 0 1 0 1 0 1 0 1 0 1 0 1 0 1 0 1 0 1 0c18 0 33-5 42-15 10-10 15-24 15-42 0-150 0-299 0-449 0-19-5-34-15-43-10-10-24-15-43-15h-256c-19 0-33 5-42 15-10 9-15 23-15 42v0 0 1 0 1 0 1 0 1 0 0 1 0 1 0 1 0 1 0 0 1 0 1 0 1 0 1 0 0 1 0 1 0 1 0 1 0 0 1 0 1 0 1 0 0 1 0 1 0 1 0 1 0 0 1 0 1 0 1 0 1 0 0 1 0 1 0 1 0 1 0 0 1 0 1 0 1 0 0 1 0 1 0 1 0 1 0 0 1 0 1 0 1 0 1 0 0 1 0 1 0 1 0 1 0 0 1 0 1 0 1 0 1 0 0 1 0 1 0 1 0 1 0 0 1 0 1 0 1 0 1 0 0 1 0 1 0 1 0 1 0 0 1 0 1 0 1 0 0 1 0 1 0 1 0 1 0 0 1 0 1 0 1 0 1 0 0 1 0 1 0 1 0 1 0 0 1 0 1 0 1 0 1 0 0 1 0 1 0 1 0 1 0 0 1 0 1 0 1 0 0 1 0 1 0 1 0 1 0 0 1 0 1 0 1 0 1 0 0 1 0 1 0 1 0 1 0 0 1 0 1 0 1 0 0 1 0 1 0 1 0 1 0 0 1 0 1 0 1 0 1 0 0 1 0 1 0 1 0 1 0 0 1 0 1 0 1 0 1 0 0 1 0 1 0 1 0 1 0 0 1 0 1 0 1 0 0 1 0 1 0 1 0 1 0 0 1 0 1 0 1 0 1 0 0 1 0 1 0 1 0 1 0 0 1 0 1 0 1 0 0 1 0 1 0 1 0 1 0 0 1 0 1 0 1 0 1 0 0 1 0 1 0 1 0 1 0 0 1 0 1 0 1 0 1 0 0 1 0 1 0 1 0 1 0 0 1 0 1 0 1 0 0 1 0 1 0 1 0 1 0 0 1 0 1 0 1 0 1 0 0 1 0 1 0 1 0 1 0 0 1 0 1 0 1 0 0 1 0 1 0 1 0 1 0 0 1 0 1 0 1 0 1 0 0 1 0 1 0 1 0 1 0 0 1 0 1 0 1 0 0 1 0 1 0 1 0 1 0 0 1 0 1 0 1 0 1 0 0 1 0 1 0 1 0 1 0 0 1 0 1 0 1 0 1 0 0 1 0 1 0 1 0 1 0 0 1 0 1 0 1 0 1 0 0 1 0 1 0 1 0 1 0 0 1 0 1 0 1 0 0 1c0 74 0 148 0 221 0 21 5 36 15 45 9 10 24 15 45 15z m895-109h0c47 1 93 1 139 0 12 0 21-2 26-8 5-5 8-13 8-25v0-1 0 0-1 0 0 0-1 0 0-1 0 0 0-1 0 0-1 0 0 0-1 0 0-1 0 0 0-1 0 0 0-1 0 0-1 0 0 0-1 0 0-1 0 0 0-1 0 0-1 0 0 0-1 0 0-1 0 0 0-1 0 0-1 0 0 0-1 0 0 0-1 0 0-1 0 0 0-1 0 0-1 0 0 0-1 0 0-1 0 0 0-1 0 0-1 0 0 0-1 0 0 0-1 0 0-1 0 0 0-1 0 0-1 0 0 0-1 0 0-1 0 0 0-1 0 0-1 0 0 0-1 0 0-1 0 0 0-1 0 0 0-1 0 0-1 0 0 0-1 0 0-1 0 0 0-1 0 0-1 0 0 0-1 0 0-1 0 0 0-1 0 0-1 0 0 0-1 0 0-1 0 0 0-1 0 0 0-1 0 0-1 0 0 0-1 0 0-1 0 0 0-1 0 0-1 0 0 0-1 0 0-1 0 0 0-1 0 0-1 0 0 0-1 0 0 0-1 0 0-1 0 0 0-1 0 0-1 0 0 0-1 0 0-1 0 0 0-1 0 0-1 0 0 0-1 0 0-1 0 0 0-1 0 0 0-1 0 0-1 0 0 0-1 0 0-1 0 0 0-1 0 0-1 0 0 0-1 0 0-1 0 0 0-1 0 0-1 0 0 0-1 0 0 0-1 0 0-1 0 0 0-1 0 0-1 0 0 0-1 0 0-1 0 0 0-1 0 0-1 0 0 0-1 0 0-1 0 0 0-1 0 0-1 0 0 0-1 0 0 0-1 0 0-1 0 0 0-1 0 0-1 0 0 0-1 0 0-1 0 0 0-1 0 0-1 0 0 0-1 0 0-1 0 0 0-1 0 0 0-1 0 0-1 0 0 0-1 0 0-1 0 0 0-1 0 0-1 0 0 0-1 0 0-1 0 0 0-1 0 0 0-1 0 0-1 0 0 0-1 0 0-1 0 0 0-1 0 0-1 0 0 0-1 0 0-1 0 0 0-1 0 0-1 0 0 0-1 0 0-1 0 0 0-1 0 0-1 0 0 0-1 0 0-1 0 0 0-1 0 0 0-1 0 0-1 0 0 0-1 0 0-1 0 0 0-1 0 0-1 0 0 0-1 0 0-1 0 0 0-1h0c0-47 0-94 0-141 0-13-3-22-8-27-6-5-15-8-28-8h0 0-1 0 0 0-1 0 0 0-1 0 0-1 0 0 0-1 0 0 0-1 0 0 0-1 0 0-1 0 0 0-1 0 0 0-1 0 0 0-1 0 0-1 0 0 0-1 0 0 0-1 0 0 0-1 0 0 0-1 0 0-1 0 0 0-1 0 0 0-1 0 0 0-1 0 0-1 0 0 0-1 0 0 0-1 0 0 0-1 0 0 0-1 0 0-1 0 0 0-1 0 0 0-1 0 0 0-1 0 0-1 0 0 0-1 0 0 0-1 0 0 0-1 0 0-1 0 0 0-1 0 0 0-1 0 0 0-1 0 0 0-1 0 0-1 0 0 0-1 0 0 0-1 0 0 0-1 0 0-1 0 0 0-1 0 0 0-1 0 0 0-1 0 0 0-1 0 0-1 0 0 0-1 0 0 0-1 0 0 0-1 0 0-1 0 0 0-1 0 0 0-1 0 0 0-1 0 0-1 0 0 0-1 0 0 0-1 0 0 0-1 0 0 0-1 0 0-1 0 0 0-1 0 0 0-1 0 0 0-1 0 0 0-1 0 0-1 0 0 0-1 0 0 0-1 0 0 0-1 0 0-1 0 0 0-1 0 0 0-1 0 0 0-1 0 0-1 0 0 0-1 0 0 0-1 0 0 0-1 0 0-1 0 0 0-1 0 0 0-1 0 0 0-1 0 0 0-1 0 0-1 0 0 0-1 0 0 0-1 0 0 0-1 0 0 0-1 0 0-1 0 0 0-1 0 0 0-1 0 0 0-1 0 0-1 0 0 0-1 0 0 0-1 0 0 0-1 0 0 0-1 0 0-1 0 0 0-1 0 0 0-1 0 0 0-1 0 0-1 0 0 0-1 0 0 0-1 0 0 0-1 0 0-1 0 0 0-1 0 0 0-1 0 0 0-1 0 0 0-1 0 0-1 0 0 0-1 0 0 0-1 0 0 0-1 0 0-1 0 0 0-1 0 0 0-1 0 0 0-1 0 0 0-1 0 0-1 0 0 0-1 0 0 0-1 0 0 0-1 0 0-1 0 0 0-1 0 0 0-1 0 0 0-1 0 0 0-1 0 0-1 0 0 0-1 0 0 0-1 0 0 0-1 0 0 0-1 0 0-1 0 0 0-1 0 0 0-1 0 0 0 0c-14 0-22 3-28 8-5 6-8 14-8 28v0 1 0 1 0 1 0 1 1 0 1 0 1 0 1 0 1 1 0 1 0 1 0 1 0 1 1 0 1 0 1 0 1 0 1 1 0 1 0 1 0 1 0 1 1 0 1 0 1 0 1 0 1 1 0 1 0 1 0 1 0 1 1 0 1 0 1 0 1 0 1 1 0 1 0 1 0 1 0 1 1 0 1 0 1 0 1 0 1 0 1 1 0 1 0 1 0 1 1 0 1 0 1 0 1 0 1 0 1 1 0 1 0 1 0 1 1 0 1 0 1 0 1 0 1 0 1 1 0 1 0 1 0 1 1 0 1 0 1 0 1 0 1 1 0 1 0 1 0 1 0 1 0 1 1 0 1 0 1 0 1 1 0 1 0 1 0 1 0 1 0 1 1 0 1 0 1 0 1 0 1 1 0 1 0 1 0 1 0 1 1 0 1 0 1 0 1 0 1 1 0 1 0 1 0 1 0 1 1 0 1 0 1 0 1 0 1 1 0 1 0 1 0 1 0 1 1 0 1 0 1 0 1 0 1 1 0 1 0 1 0 1 0 1 1 0 1 0 1 0 1 0 1 1 0 1 0 1 0 1 0 1 1 0 1 0 1 0 1 0 1 1 0 1 0 1 0 1 0 1 1 0 1 0 1 0 1 0 1 1 0 1 0 1 0 1 0 1 1 0 1 0 1 0 1 0 1 1 0 1 0 1 0 1 0 1 1 0 1 0 1 0 1 0 1 1 0 1 0 1 0 1 0 1 1 0 1 0 1 0 1 0 1 1 0 1 0 1 0 1 0 1 1 0 1 0 1 0 1 0 1 1 0 1 0 1 0 1 0 1 1 0 1 0 1 0 1 0 1 1 0 1 0 1 0 1 0 1 0 1 1 0 1 0 1 0 1 1 0 1 0 1 0 1 0 1 0 1 1 0 1 0 1 0 1 0 1 1 0 1 0 1 0 1 0 1 1 0 1 0 1 0 1 0 1 1 0 1 0 1 0 1 0 1 1 0 1 0 1 0 1 0 1 1 0 1 0 1 0 1 0 1 1 0 1 0 1 0 1 0 1 1 0 1 0 1 0 1 0 1 1 0 1 0 1 0 1 0 1 1 0 1 0 1 0 1 0 1 1 0 1 0 1 0 1 0 1 1 0 1 0 1c0 12 3 21 8 26 6 6 14 8 26 8z m-540-76h462v-68h-462z m169-114h120v-76h-120z" horiz-adv-x="1215" />

<glyph glyph-name="rounded-check" unicode="&#xe821;" d="M500 850c-276 0-500-224-500-500 0-276 224-500 500-500 276 0 500 224 500 500 0 276-224 500-500 500z m0-100c221 0 400-179 400-400 0-220-179-400-400-400-220 0-400 180-400 400 0 221 180 400 400 400z m230-179l-330-330-129 130-71-71 200-200 400 400z" horiz-adv-x="1000" />

<glyph glyph-name="search" unicode="&#xe822;" d="M398 850c-220-2-400-184-398-408 2-221 179-398 398-400 82 0 162 24 228 74l237-250c19-21 52-21 73-2 21 20 21 53 2 74l-235 248c142 172 120 427-51 569-71 62-161 95-254 95z m0-105c164 1 298-132 298-297 0-165-131-301-294-301-164-2-298 132-298 297v2c-1 163 131 299 294 299z" horiz-adv-x="952" />

<glyph glyph-name="star" unicode="&#xe823;" d="M536 850l-122-382-414-5 338-231-122-382 331 240 338-231-133 379 331 239-413-5z" horiz-adv-x="1083" />

<glyph glyph-name="support" unicode="&#xe824;" d="M499 848c-114 1-218-36-309-108-98-79-159-181-181-305-2-11-3-22-5-33 0-7-1-14-2-21l0-62c0-5 1-10 2-15 1-13 3-26 5-40 23-124 84-225 182-304h0c79-63 170-99 271-107h0c2 0 5-1 7-1h62c4 0 8 1 12 1 8 1 16 2 24 3 99 14 186 53 261 119 119 107 175 240 170 400 0 13-2 26-4 39-1 11-10 18-20 18-10-1-18-10-17-21 0-4 0-7 0-11v0c7-55 3-110-11-164-69-267-356-415-613-314-217 84-337 320-278 544 28 107 93 200 184 263 91 62 201 90 311 78 120-13 219-67 298-157 1-1 2-3 3-5 1 0 2-1 3-3l1-2h-3c-9 0-19 0-28 0-18 0-35 0-53 0h0c-2 0-3-1-5-1-1 0-2 1-3 1-2-1-4-2-6-4-2-2-4-4-5-7-1-2-2-5-2-8 0-2 1-5 2-8 1-2 2-5 4-7 2-2 5-3 7-4 3-1 5-2 8-2 42 0 84 0 125 0 12 0 20 8 20 19 1 43 1 86 0 129 0 12-10 19-21 18-12 0-20-9-20-22 0-2 1-5 2-8 0-11 0-22 0-33 0-7 0-15 0-23-4 3-8 4-12 9-93 98-207 152-343 159-7 0-15 0-23 0z m-94-265c-30 0-59 0-89 0-31-1-53-24-49-55 3-27 7-54 14-80 38-133 120-229 243-290 49-23 101-36 154-41 32-3 55 19 55 50 0 29 0 58 0 88 0 24-13 42-36 48-22 5-45 10-67 16-27 8-48 1-64-22-6-9-13-18-19-27-53 31-97 75-128 129 11 8 21 15 31 23 17 13 24 30 19 51-6 25-12 50-19 75-2 10-8 19-16 26-9 6-19 9-29 9z m-4-38c7 0 11-4 13-11 6-22 11-44 17-66 2-7 0-12-6-17-13-9-26-19-39-28-12-10-14-18-7-31 37-71 91-125 162-162 12-7 20-5 28 6 11 14 21 28 32 41 4 6 8 8 14 6 23-6 46-12 69-17 7-2 10-6 10-13v-43l1 0c0-14 0-28 0-42-1-10-4-13-14-12-88 8-171 43-237 102-67 58-112 136-131 222-3 17-5 34-7 51-1 9 2 13 11 13 28 0 56 0 84 1z" horiz-adv-x="1000" />
</font>
</defs>
</svg>
